Posteado por:
campitos
Star Silver AV



The Fate of the Furious [2017] FullHD 1080p [Ing-Lat]

Bookmark and Share





Titulo original: The Fate of the Furious
Ano: 2017
Duracion: 136 min.
Pais: Estados Unidos
Director: F. Gary Gray
Reparto: Vin Diesel, Dwayne "The Rock" Johnson, Jason Statham, Charlize Theron, Michelle Rodriguez, Tyrese Gibson, Ludacris, Helen Mirren, Scott Eastwood, Kurt Russell, Kristofer Hivju, Nathalie Emmanuel, Don Omar, Tego Calderon, Elsa Pataky, Luke Evans
Productora: Universal Pictures / One Race Films / Original Film
Genero: Accion. Thriller | Coches / Automovilismo. Secuela
Sinopsis: Con Dom y Letty de luna de miel, Brian y Mia fuera del juego y el resto de la pandilla exonerada de todo cargo, el equipo esta instalado en una vida aparentemente normal. Pero cuando una misteriosa mujer (Theron) seduce a Dom (Diesel) para regresar nuevamente al mundo del crimen, se ve incapaz de rechazar la oportunidad, traicionando asi a todo el mundo cercano a el. A partir de ese momento todos se enfrentaran a pruebas como nunca antes habian tenido. Desde las costas de Cuba y las calles de Nueva York hasta las llanuras del mar de Barents en el oceano Artico, nuestra fuerza de elite recorrera el globo para impedir que un anarquista desencadene el caos en el mundo... y por supuesto para traer de vuelta a casa al hombre que les hizo una familia.
http://www.imdb.com/title/tt4630562/
Trailer
https://youtu.be/HWTG5W3L7K0


Cita:


General
Format : Matroska
Format version : Version 4 / Version 2
File size : 10.6 GiB
Duration : 2 h 15 min
Overall bit rate : 11.1 Mb/s
Movie name : The Fate of the Furious (2017) 1080p
Encoded date : UTC 2017-06-29 23:19:46
Writing application : mkvmerge v9.9.0 (Pick Up) 64bit
Writing library : libebml v1.3.4 + libmatroska v1.4.5
Video
ID : 1
Format : AVC
Format/Info : Advanced Video Codec
Format profile : High@L4.1
Format settings, CABAC : Yes
Format settings, ReFrames : 5 frames
Codec ID : V_MPEG4/ISO/AVC
Duration : 2 h 15 min
Bit rate : 8 851 kb/s
Width : 1 920 pixels
Height : 808 pixels
Display aspect ratio : 2.40:1
Frame rate mode : Constant
Frame rate : 23.976 FPS
Color space : YUV
Chroma subsampling : 4:2:0
Bit depth : 8 bits
Scan type : Progressive
Bits/(Pixel*Frame) : 0.238
Stream size : 8.40 GiB (80%)
Title : The Fate of the Furious (2017) 1080p
Language : English
Default : Yes
Forced : No
Audio #1
ID : 2
Format : DTS
Format/Info : Digital Theater Systems
Mode : 16
Format settings, Endianness : Big
Codec ID : A_DTS
Duration : 2 h 15 min
Bit rate mode : Constant
Bit rate : 768 kb/s
Channel(s) : 6 channels
Channel positions : Front: L C R, Side: L R, LFE
Sampling rate : 48.0 kHz
Frame rate : 93.750 FPS (512 spf)
Bit depth : 24 bits
Compression mode : Lossy
Stream size : 747 MiB (7%)
Title : DTS Bluray
Language : Spanish
Default : Yes
Forced : No
Audio #2
ID : 3
Format : DTS
Format/Info : Digital Theater Systems
Mode : 16
Format settings, Endianness : Big
Codec ID : A_DTS
Duration : 2 h 15 min
Bit rate mode : Constant
Bit rate : 1 509 kb/s
Channel(s) : 6 channels
Channel positions : Front: L C R, Side: L R, LFE
Sampling rate : 48.0 kHz
Frame rate : 93.750 FPS (512 spf)
Bit depth : 24 bits
Compression mode : Lossy
Stream size : 1.43 GiB (14%)
Title : DTS
Language : English
Default : No
Forced No
Text #1
ID : 4
Format : UTF-8
Codec ID : S_TEXT/UTF8
Codec ID/Info : UTF-8 Plain Text
Duration : 2 h 14 min
Bit rate : 1 b/s
Count of elements : 70
Stream size : 1.54 KiB (0%)
Title : Subt_Forz
Language : Spanish
Default : Yes
Forced : No
Text #2
ID : 5
Format : UTF-8
Codec ID : S_TEXT/UTF8
Codec ID/Info : UTF-8 Plain Text
Duration : 2 h 14 min
Bit rate : 46 b/s
Count of elements : 1527
Stream size : 46.3 KiB (0%)
Title : Subt_Compl
Language : Spanish
Default : No
Forced : No









Buy Premium Account To Get High Speed Download
Para poder ver los links necesitas estar Registrado . O.. ya tienes cuenta? Logueate!

Bookmark and Share


1 Comentarios


Cargando comentarios espera un momento...
No tienes permisos para comentar.

Para poder comentar necesitas estar Registrado. O.. ya tienes usuario? Logueate!